Viktor Lazlo nackt sorted by
relevance

Admin02.09.2021

Muscle Lover: The Modern Spartan from Florida

If you reside in an EU member state besides UK, import VAT on this purchase is not recoverable.
9501
Admin15.07.2021

(Pop) Ella Endlich

42 158360 175201 12 38:56.
1107
Admin18.07.2021

Viktor Lazlo

1996 "Turn It All Around" int• 0b3" CATALOG 5054196183127 PERFORMER "Ella Endlich" TITLE "Die suesse Wahrheit" FILE "01 Eine Schachtel Pralinen.
9403
Admin05.07.2021

Sweet, Soft N' Lazy (The Exclusive Collection)

70 112200 125994 9 27:59.
7506
Admin22.07.2021

Gay Influence: Sal Mineo

Jemand, der zaubert 3:32 6.
4901
Admin27.08.2021

(Pop) Ella Endlich

wav" WAVE TRACK 06 AUDIO TITLE "Das Schoenste ist einfach" PERFORMER "Ella Endlich" ISRC DEA621400253 INDEX 01 00:00:00 FILE "07 Wunder sind nackt.
Admin31.08.2021

(Pop) Ella Endlich

wav" WAVE TRACK 01 AUDIO TITLE "Eine Schachtel Pralinen" PERFORMER "Ella Endlich" ISRC DEA621400243 INDEX 01 00:00:00 FILE "02 Bis in alle Ewigkeit.
9405
Admin14.06.2021

Juliane Werding

000 Mal, das darauf folgende Album In tiefer Trauer 100.
7202
Admin03.07.2021

Back to Front (Viktor Lazlo album)

2002 album of French chansons• "If I Go" Gardez-moi Lazlo, Linx, Manoukian 4:09 7.
9903
Admin01.08.2021

Hot & Soul

wav" WAVE TRACK 02 AUDIO TITLE "Bis in alle Ewigkeit" PERFORMER "Ella Endlich" ISRC DEA621400249 INDEX 01 00:00:00 FILE "03 Was waere wenn.
6609