bee gees greatest hits album download torrent sorted by
relevance

Admin05.08.2021

[DOWNLOAD] Bee Gees

Top 10 Songs Lists — Themes.
3002
Admin21.06.2021

Bee Gees

.
3507
Admin13.07.2021

Bee Gees Greatest Hits Mp3 Torrent Download

Magnet Link - Torrent - 16.
2502
Admin19.06.2021

[DOWNLOAD] Bee Gees

The content provided in this app is hosted by their publishers and is available in public domain.
3705
Admin11.06.2021

Best of Bee Gees (Greatest Hits)

flac" WAVE INDEX 01 00:00:00 TRACK 19 AUDIO TITLE "If I Can't Have You" PERFORMER "Bee Gees" INDEX 00 03:36:34 FILE "19 - Bee Gees - If I Can't Have You.
8004
Admin19.06.2021

(Pop, Electronic, Rock) Bee Gees

flac" WAVE INDEX 01 00:00:00 TRACK 14 AUDIO TITLE "Secret Love" PERFORMER "Bee Gees" INDEX 00 04:54:71 FILE "14 - Bee Gees - Secret Love.
9200
Admin24.08.2021

Bee Gees Greatest Hits Mp3 Torrent Download alegaspa on binmesissupp

.
5104
Admin16.07.2021

(Pop, Electronic, Rock) Bee Gees

This version is a bug-fixing release.
3704
Admin21.08.2021

Bee Gees Greatest Hits

flac" WAVE INDEX 01 00:00:00 TRACK 17 AUDIO TITLE "Immortality" PERFORMER "Bee Gees" INDEX 00 04:21:03 FILE "17 - Bee Gees - Immortality.
Admin04.09.2021

Album Timeless

Download Emtee Logan Album Zip Mp3 Fakaza New 2021 Songs.
2202